Private Library for Business-Only Content.

The LEAP Movie (documentary about coaching)

Leap
[1 Video (MP4)]

Category:
This product can only be requested by members. To get this product, you must be a member
BECOME A MEMBER

Description

Discover The World’s 1st Coaching Movie

The LEAP Movie tells the story of a one year experiment seeking to discover whether coaching can help ordinary people achieve extraordinary things. Four participants will be pushed to their limit as they seek to transform their lives with the help of an elite team of coaches.

https://coachingmovie.com/

I realize that the file is quite big. But that’s the way I got it when I was screening it.

Medial file info:
Format                                   : MPEG-4
Format profile                           : Base Media / Version 2
Codec ID                                 : mp42
File size                                : 7.10 GiB
Duration                                 : 1h 39mn
Overall bit rate mode                    : Variable
Overall bit rate                         : 10.2 Mbps
Encoded date                             : UTC 2018-07-16 17:02:15
Tagged date                              : UTC 2018-07-16 19:58:03
©TIM                                     : 00:00:00:00
©TSC                                     : 24000
©TSZ                                     : 1001

Video
ID                                       : 1
Format                                   : AVC
Format/Info                              : Advanced Video Codec
Format profile                           : [email protected]
Format settings, CABAC                   : Yes
Format settings, Reframes                : 4 frames
Codec ID                                 : avc1
Codec ID/Info                            : Advanced Video Coding
Duration                                 : 1h 39mn
Source duration                          : 1h 39mn
Bit rate                                 : 9 843 Kbps
Width                                    : 1 920 pixels
Height                                   : 1 080 pixels
Display aspect ratio                     : 16:9
frame rate mode                          : Constant
frame rate                               : 23.976 fps
Standard                                 : NTSC
Color space                              : YUV
Chroma subsampling                       : 4:2:0
Bit depth                                : 8 bits
Scan type                                : Progressive
Bits/(Pixel*frame)                       : 0.198
Stream size                              : 6.87 GiB (97%)
Source stream size                       : 6.87 GiB (97%)
Language                                 : English
Encoded date                             : UTC 2018-07-16 17:02:15
Tagged date                              : UTC 2018-07-16 17:02:15
Color primaries                          : BT.709
Transfer characteristics                 : BT.709
Matrix coefficients                      : BT.709

Audio
ID                                       : 2
Format                                   : AAC
Format/Info                              : Advanced Audio Codec
Format profile                           : LC
Codec ID                                 : 40
Duration                                 : 1h 39mn
Source duration                          : 1h 39mn
Bit rate mode                            : Variable
Bit rate                                 : 317 Kbps
Maximum bit rate                         : 459 Kbps
Channel(s)                               : 2 channels
Channel positions                        : Front: L R
Sampling rate                            : 48.0 KHz
Compression mode                         : Lossy
Stream size                              : 227 MiB (3%)
Source stream size                       : 227 MiB (3%)
Language                                 : English
Encoded date                             : UTC 2018-07-16 17:02:15
Tagged date                              : UTC 2018-07-16 17:02:15

Reviews

There are no reviews yet.

Be the first to review “The LEAP Movie (documentary about coaching)”
Quick Navigation
×
×

Cart

error: Alert: Content is protected !!