Private Library for Business-Only Content.

Tom Greever – Lead and Manage a Design Team

Lead and Manage a Design Team
[42 videos (MP4) + 2 ebooks ( PDF)]

This product can only be requested by members. To get this product, you must be a member
Apply for Membership

Description

Articulating Design Decisions

Tom Greever
Design Sprint

Richard Banfield, C. Todd Lombardo, and Trace Wax
O’Reilly Media, Inc.

Description:

In addition to creating wonderful designs, your design team needs to know how to communicate effectively with stakeholders, create prototypes, test usability, and move projects ahead on schedule. As a leader and manager, you job is to ensure that these things happen. This Learning Path will equip you with the practical skills you’ll use to help your team achieve its goals.

Contents:

 
Articulating Design Decisions
Presented by Tom Greever 2 hours 51 minutes

In this course, you’ll learn principles and actionable methods for talking about your ideas with executives, marketers, and others who have influence over your web or app projects—with the goal of winning over these stakeholders and creating the best user experience. You’ll learn how to make the case for your designs by directly connecting them to business needs, use data, user testing, and other compelling research to justify your design decisions, and more.

 
Design Sprint
Presented by Richard Banfield, C. Todd Lombardo, and Trace Wax 1 hour 31 minutes

This course will teach you how to reduce your risk of failure by using design sprints, a unique process that enables your team to prototype and test a digital product idea within a week. As you learn the five steps involved in a sprint, you’ll discover that you don’t need to spend a lot of time and money on a minimal product when a simple prototype will help you gain just as much information and insight.

Screen Caps

Author: Tom Greever

Tom Greever helps companies and organizations design better websites and apps. He is the UX Director at Bitovi, a front-end design and development consulting company, and has worked with both small startups and large corporations across many different industries. You can hire him to design your app, train your team, or speak at your next event. He lives in Illinois with his wife and five kids. He is probably cleaning up the house right now.

Authors: Richard Banfield, C. Todd Lombardo, Trace Wax

Richard Banfield

The CEO and Co-Founder of Boston-Based User Experience Agency Fresh Tilled Soil, Richard wears the strategic hat around the office. He’s worked his way up the web marketing food chain, starting with online ad sales at MultiChoice, Africa’s largest BizLearning and Internet media business. Richard was in the thick of it during the heady dot-com years, founding Acceleration, an international e-marketing business headquartered in London. He has never met a whiteboard he didn’t like.

C. Todd Lombardo

n a world of hyper-specialization, C. Todd stands in the intersections and sees the connections that revolve around us. As an Innovation Architect at Constant Contact’s InnoLoft, he facilitates product and service design sprints for a wide range of external startups and internal product teams. C. Todd is also a member of the adjunct faculty at Madrid’s prestigious IE Business School where he teaches courses on Creativity, Innovation, Design-Thinking and Communication.

Trace Wax

After a career in user experience design and research at companies like Microsoft and Nuance, Trace then became a developer at Pivotal Labs, and is now a Managing Director at thoughtbot. He has facilitated numerous product design sprints, and is an author and maintainer of thoughtbot’s design sprint methodology repository. He’s brought Lean and Agile methodology to many large companies and small startups, helping teams to focus, prioritize, and become happy and productive.

Details:

Genre:                              Management / Design
Original language:         English
Run Time:                        42 lectures | 4 hours
Release Date:                 July 2015, November 2015

Course Link:  

O’Reilly Learning Path – Lead and Manage a Design Team




General
Complete name                            : Design BusinessO'Reilly - Learning Path Lead and Manage a Design TeamArticulating Design Decisions8. The Response Key Messages.mp4
Format                                   : MPEG-4
Format profile                           : Base Media
Codec ID                                 : isom (isom/iso2/avc1/mp41)
File size                                : 306 MiB
Duration                                 : 12 min 42 s
Overall bit rate mode                    : Variable
Overall bit rate                         : 3 367 kb/s
Writing application                      : Lavf56.36.100

Video
ID                                       : 2
Format                                   : AVC
Format/Info                              : Advanced Video Codec
Format profile                           : [email protected]
Format settings, CABAC                   : Yes
Format settings, Reframes                : 5 frames
Codec ID                                 : avc1
Codec ID/Info                            : Advanced Video Coding
Duration                                 : 12 min 42 s
Bit rate                                 : 3 231 kb/s
Nominal bit rate                         : 4 000 kb/s
Width                                    : 1 920 pixels
Height                                   : 1 080 pixels
Display aspect ratio                     : 16:9
frame rate mode                          : Constant
frame rate                               : 29.970 (29970/1000) FPS
Color space                              : YUV
Chroma subsampling                       : 4:2:0
Bit depth                                : 8 bits
Scan type                                : Progressive
Bits/(Pixel*frame)                       : 0.052
Stream size                              : 294 MiB (96%)
Writing library                          : x264 core 146 r2538 121396c
Encoding settings                        : cabac=1 / ref=6 / deblock=1:0:0 / analyse=0x3:0x111 / me=hex / subme=7 / psy=1 / psy_rd=1.00:0.00 / mixed_ref=1 / me_range=16 / chroma_me=1 / trellis=1 / 8x8dct=1 / cqm=0 / deadzone=21,11 / fast_pskip=1 / chroma_qp_offset=-2 / threads=4 / lookahead_threads=1 / sliced_threads=0 / nr=0 / decimate=1 / interlaced=0 / bluray_compat=0 / constrained_intra=0 / bframes=16 / b_pyramid=1 / b_adapt=1 / b_bias=0 / direct=1 / weightb=1 / open_gop=0 / weightp=2 / keyint=60 / keyint_min=20 / scenecut=40 / intra_refresh=0 / rc_lookahead=40 / rc=cbr / mbtree=1 / bitrate=4000 / ratetol=1.0 / qcomp=0.60 / qpmin=10 / qpmax=50 / qpstep=4 / vbv_maxrate=4000 / vbv_bufsize=8000 / nal_hrd=none / filler=0 / ip_ratio=1.41 / aq=1:1.00

Audio
ID                                       : 1
Format                                   : AAC
Format/Info                              : Advanced Audio Codec
Format profile                           : LC
Codec ID                                 : 40
Duration                                 : 12 min 42 s
Duration_Lastframe                       : -7 ms
Bit rate mode                            : Variable
Bit rate                                 : 128 kb/s
Maximum bit rate                         : 4 000 kb/s
Channel(s)                               : 2 channels
Channel(s)_Original                      : 1 channel
Channel positions                        : Front: C
Sampling rate                            : 44.1 kHz
frame rate                               : 43.066 FPS (1024 spf)
Compression mode                         : Lossy
Stream size                              : 11.6 MiB (4%)
Default                                  : Yes
Alternate group                          : 1

Reviews

There are no reviews yet.

Be the first to review “Tom Greever – Lead and Manage a Design Team”
Quick Navigation
×
×

Cart